Vedi Prodotto | Documentary | The Seven Deadly Sins Season 3 Episode 12 s03e12
media-original.com - The Largest Bittorent System Login   |    Register
Latest Articles
Most searched
Hot torrents
Movie Torrents
View Torrent Info: Incredibles 2 (2018) [720p] [YTS] [YIFY]
View Torrent Info: BlacKkKlansman (2018) [720p] [YTS] [YIFY]
View Torrent Info: Adam Sandler: 100% Fresh (2018) [720p] [YTS] [YIFY]
View Torrent Info: Juliet, Naked (2018) [720p] [YTS] [YIFY]
View Torrent Info: The Dark (2018) [720p] [YTS] [YIFY]
View Torrent Info: Satyameva Jayate (2018) [720p] [YTS] [YIFY]
View Torrent Info: An Interview with God (2018) [720p] [YTS] [YIFY]
View Torrent Info: Galveston (2018) [720p] [YTS] [YIFY]
View Torrent Info: The Night Comes for Us (2018) [720p] [YTS] [YIFY]
View Torrent Info: Malicious (2018) [720p] [YTS] [YIFY]
Hot torrents
TV Torrents
View Torrent Info: The.Walking.Dead.S09E03.HDTV.x264-SVA[eztv]
View Torrent Info: Supergirl.S04E02.HDTV.x264-SVA[eztv]
View Torrent Info: Blindspot.S04E02.HDTV.x264-SVA[eztv]
View Torrent Info: How.to.Get.Away.with.Murder.S05E04.HDTV.x264-KILLERS[eztv]
View Torrent Info: Arrow.S07E02.HDTV.x264-SVA[eztv]
View Torrent Info: DCs.Legends.of.Tomorrow.S04E01.HDTV.x264-SVA[eztv]
View Torrent Info: The.Flash.2014.S05E03.HDTV.x264-SVA[eztv]
View Torrent Info: Titans.2018.S01E02.WEB.x264-PHOENiX[eztv]
View Torrent Info: The.Big.Bang.Theory.S12E05.HDTV.x264-SVA[eztv]
View Torrent Info: the.last.ship.s05e07.webrip.x264-tbs[eztv]
media-original.com > Categories > TV torrents > Beauty and the Beast torrents


Browse TV torrents

Buried Treasure - King Solomon's Mines (BBC, 1958) torrent



Download torrent: Magnet link Bookmark Torrent: Buried Treasure - King Solomon's Mines (BBC, 1958) Download Buried Treasure - King Solomon's Mines (BBC, 1958) torrent (magnet link)
Info hash: D68EC98788E770FE27B736EFAF704E7069D3FBD5
Category: Categories > TV torrents > Beauty and the Beast torrents
Trackers:
5    View all torrent trackers >
Health:
 seeds: 0 ,  leechers: 2 |  Update >
Torrent language:  
Total Size: 299.06 MB
Torrent status: Added by trusted uploader Added by trusted uploader Trusted Uploader Site Friend Superman Sun
Uploader: Trusted Uploader Site Friend Superman Sun
 

Download Buried Treasure - King Solomon's Mines (BBC, 1958) via Magnet Link




Torrent Description

Buried Treasure - King Solomon's Mines (BBC, 1958)

First transmitted in 1958, Sir Mortimer Wheeler explores the stone ruins of Great Zimbabwe National Monument, a mysterious site once thought to be the source of King Solomon's gold.

Sir Mortimer joins Roger Summers, Chairman of the Southern Rhodesia Historical Monuments Commission, on an excavation of the site to find out more about the largest ruins in southern Africa.

First shown: 29 October 1958
Duration: 30 minutes



Media info:-

General
Format : MPEG-4
Format profile : Base Media
Codec ID : isom (isom/iso2/avc1/mp41)
File size : 298 MiB
Duration : 27mn 44s
Overall bit rate mode : Constant
Overall bit rate : 1 503 Kbps
Writing application : Lavf57.25.100

Video
ID : 1
Format : AVC
Format/Info : Advanced Video Codec
Format profile : [email protected]
Format settings, CABAC : Yes
Format settings, ReFrames : 2 frames
Codec ID : avc1
Codec ID/Info : Advanced Video Coding
Duration : 27mn 44s
Bit rate mode : Constant
Bit rate : 1 404 Kbps
Width : 832 pixels
Height : 468 pixels
Display aspect ratio : 16:9
Frame rate mode : Constant
Frame rate : 25.000 fps
Color space : YUV
Chroma subsampling : 4:2:0
Bit depth : 8 bits
Scan type : Progressive
Bits/(Pixel*Frame) : 0.144
Stream size : 279 MiB (93%)

Audio
ID : 2
Format : AAC
Format/Info : Advanced Audio Codec
Format profile : LC
Codec ID : 40
Duration : 27mn 44s
Bit rate mode : Constant
Bit rate : 93.5 Kbps
Channel(s) : 2 channels
Channel positions : Front: L R
Sampling rate : 48.0 KHz
Frame rate : 46.875 fps (1024 spf)
Compression mode : Lossy
Stream size : 18.6 MiB (6%)



#ElsonRoa -> To avoid fakes, ALWAYS check that the torrent was added on media-original.com by ElsonRoa

http://media-original.com/




Comments (please add your comment)
No comments



Home - Browse Torrents - Upload Torrent - Stat - Forum - FAQ - Login
media-original.com is in compliance with copyrights
2006-2018 media-original.com
Sitemap